WWE Main Event 2016 06 21 720p WEB h264-OVERTiME[rartv]

seeders: 16
leechers: 5
updated:
Added by z0n3212.56M in TV
Torrent verified. Downloaded 0 times.

DownloadFast Safe Anonymous
movies, software, shows...
Available in versions: 1080p720p480pHDTVWEBRipx264
WWE Main Event 2016 06 21 720p WEB h264-OVERTiME[rartv] (Size: 1.35 GB)
  rarbg.com.txt 34 bytes
  WWE.Main.Event.2016.06.21.720p.WEB.h264-OVERTiME.mkv 1.35 GB
  WWE.Main.Event.2016.06.21.720p.WEB.h264-OVERTiME.nfo 1.84 KB

Description


https://rarbg.to
WWE.Main.Event.2016.06.21.720p.WEB.h264-OVERTiME[rartv]

image
Screens :

image
Mediainfo :

Video
ID : 1
Format : AVC
Format/Info : Advanced Video Codec
Format profile : [email protected]
Format settings, CABAC : Yes
Format settings, ReFrames : 3 frames
Codec ID : V_MPEG4/ISO/AVC
Duration : 43mn 37s
Bit rate mode : Variable
Bit rate : 4 350 Kbps
Maximum bit rate : 5 500 Kbps
Width : 1 280 pixels
Height : 720 pixels
Display aspect ratio : 16:9
Frame rate mode : Constant
Frame rate : 29.970 (30000/1001) fps
Color space : YUV
Chroma subsampling : 4:2:0
Bit depth : 8 bits
Scan type : Progressive
Bits/(Pixel*Frame) : 0.157
Stream size : 1.33 GiB (98%)
Default : Yes
Forced : No

Audio
ID : 2
Format : AAC
Format/Info : Advanced Audio Codec
Format profile : LC
Codec ID : A_AAC
Duration : 43mn 37s
Bit rate : 93.5 Kbps
Channel(s) : 2 channels
Channel positions : Front: L R
Sampling rate : 48.0 KHz
Frame rate : 46.875 fps (1024 spf)
Compression mode : Lossy
Delay relative to video : -21ms
Stream size : 29.2 MiB (2%)
Default : Yes
Forced : No

Related Torrents

torrent name size files age seed leech

Sharing Widget


Download torrent
1.35 GB
seeders:0
leechers:0
WWE Main Event 2016 06 21 720p WEB h264-OVERTiME[rartv]



To share this torrent use the code below and insert it into comments, status messages, forum posts or your signature.

Torrent: WWE Main Event 2016 06 21 720p WEB h264-OVERTiME[rartv]

Trackers

tracker name
udp://tracker.openbittorrent.com:80/announce
udp://tracker.publicbt.com:80/announce
udp://tracker.coppersurfer.tk:6969/announce
udp://9.rarbg.me:2710/announce
udp://p4p.arenabg.com:1337/announce
http://tracker.trackerfix.com/announce
udp://9.rarbg.to:2710/announce
udp://tracker.opentrackr.org:1337/announce
µTorrent compatible trackers list

Locations

name
KickassTorrents
Torrent hash: 7A130A9F2F3F853842E03CC8535F7305DA04805A

All Comments

audio
0/10
video
0/10
please, leave only comments related to that torrent
Sign In

Report a bug Open chat