WAGS S02E03 DM Drama HDTV x264-CRiMSON[rartv]

seeders: 185
leechers: 23
updated:
Added by z0n3212.56M in TV
Torrent verified. Downloaded 2,045 times.

DownloadFast Safe Anonymous
movies, software, shows...
  • View all WAGS episodes
  • Episode title: DM Drama
  • Episode: S02E03
  • Air date: 10 July 2016
  • IMDb link: 1345750
  • TVmaze link: WAGS
  • Original run: 18 August 2015 — Present
  • Summary:

    It’s all about the “Women and Girlfriends of Sports” in this new one-hour, eight episode series that goes inside the world of some of today’s hottest professional athletes, from the perspective of the women behind them. “WAGS” follows the beautiful, driven and always outspoken women who make up an exclusive club of spouses and girlfriends of professional sports players. Constantly vying for seniority and respect, these women live a glamorous lifestyle full of perks, but the diamonds, first class travel, cars and mansions don’t come easy and top positions in this elite group come only to those who follow the rules and know how to play the game.

    Written by Rocky_45121.66K
Available in versions: 1080p720p480pHDTV
WAGS S02E03 DM Drama HDTV x264-CRiMSON[rartv] (Size: 339.47 MB)
  rarbg.com.txt 34 bytes
  WAGS.S02E03.DM.Drama.HDTV.x264-CRiMSON.mkv 339.46 MB
  WAGS.S02E03.DM.Drama.HDTV.x264-CRiMSON.nfo 772 bytes

Description


https://rarbg.to
WAGS.S02E03.DM.Drama.HDTV.x264-CRiMSON[rartv]

image
Screens :

image
Mediainfo :

Video
ID : 1
Format : AVC
Format/Info : Advanced Video Codec
Format profile : [email protected]
Format settings, CABAC : Yes
Format settings, ReFrames : 5 frames
Codec ID : V_MPEG4/ISO/AVC
Duration : 42mn 24s
Bit rate : 1 002 Kbps
Width : 720 pixels
Height : 404 pixels
Display aspect ratio : 16:9
Frame rate mode : Constant
Frame rate : 23.976 (24000/1001) fps
Color space : YUV
Chroma subsampling : 4:2:0
Bit depth : 8 bits
Scan type : Progressive
Bits/(Pixel*Frame) : 0.144
Stream size : 304 MiB (90%)
Writing library : x264 core 148 r2705 3f5ed56
Encoding settings : cabac=1 / ref=5 / deblock=1:0:0 / analyse=0x3:0x113 / me=umh / subme=8 / psy=1 / psy_rd=1.00:0.15 / mixed_ref=1 / me_range=16 / chroma_me=1 / trellis=1 / 8x8dct=1 / cqm=0 / deadzone=21,11 / fast_pskip=1 / chroma_qp_offset=-3 / threads=12 / lookahead_threads=2 / sliced_threads=0 / nr=0 / decimate=1 / interlaced=0 / bluray_compat=0 / constrained_intra=0 / bframes=3 / b_pyramid=2 / b_adapt=2 / b_bias=0 / direct=3 / weightb=1 / open_gop=0 / weightp=2 / keyint=240 / keyint_min=23 / scenecut=40 / intra_refresh=0 / rc_lookahead=50 / rc=crf / mbtree=1 / crf=21.0 / qcomp=0.60 / qpmin=0 / qpmax=69 / qpstep=4 / ip_ratio=1.40 / aq=1:1.00
Language : English
Default : Yes
Forced : No
Color range : Limited
Matrix coefficients : BT.709

Audio
ID : 2
Format : AAC
Format/Info : Advanced Audio Codec
Format profile : LC
Codec ID : A_AAC
Duration : 42mn 24s
Bit rate : 115 Kbps
Channel(s) : 2 channels
Channel positions : Front: L R
Sampling rate : 48.0 KHz
Frame rate : 46.875 fps (1024 spf)
Compression mode : Lossy
Delay relative to video : 9ms
Stream size : 34.8 MiB (10%)
Default : Yes
Forced : No

Sharing Widget


Download torrent
339.47 MB
seeders:154
leechers:20
WAGS S02E03 DM Drama HDTV x264-CRiMSON[rartv]



To share this torrent use the code below and insert it into comments, status messages, forum posts or your signature.

Torrent: WAGS S02E03 DM Drama HDTV x264-CRiMSON[rartv]

Trackers

tracker name
udp://tracker.openbittorrent.com:80/announce
udp://tracker.publicbt.com:80/announce
udp://tracker.coppersurfer.tk:6969/announce
udp://9.rarbg.me:2710/announce
udp://p4p.arenabg.com:1337/announce
http://tracker.trackerfix.com/announce
udp://9.rarbg.to:2710/announce
udp://tracker.opentrackr.org:1337/announce
µTorrent compatible trackers list

Locations

name
KickassTorrents
Torrent hash: 3E465AA5B551F4C99706ADD5ECC76A8EE47FF79F

All Comments

audio
0/10
video
0/10
please, leave only comments related to that torrent
Sign In

Thank you for this! Super quick. Need my fix of trash tv!

User Opinions

sirengaze5742, aLyP3822, amyy883746, assets3723, trmjm3325, Maddiee9102609, linze1431519, Paulabm1368, tumamita701, frizzybelle7676 ... And 5 more
Report a bug Open chat