Valleem Thetti Pulleem Thetti (2016) Malayalam DVDRip x264 AAC 5.1 E-Subs -[XclusivE]

seeders: 401
leechers: 186
updated:
Added by Alwayszack616 in Movies > Asian
Torrent verified. Downloaded 739 times.

DownloadFast Safe Anonymous
movies, software, shows...
Summary:

Movie is set in a village in Palaghat. A C-class theater and a festival that lasts for a period of ten days form the background of the story.

Written by thequeen8698
Available in versions: DVDRip
Valleem Thetti Pulleem Thetti (2016) Malayalam DVDRip x264 AAC 5.1 E-Subs -[XclusivE] (Size: 1.45 GB)
  Valleem Thetti Pulleem Thetti (2016) Malayalam DVDRip x264 AAC 5.1 E-Subs -[XclusivE].mkv 1.45 GB

Description

image

General
Complete name : Valleem Thetti Pulleem Thetti (2016) Malayalam DVDRip x264 AAC 5.1 E-Subs -[XclusivE]
Format : Matroska
Format version : Version 2
File size : 1.45 GiB
Duration : 2h 26mn
Overall bit rate mode : Variable
Overall bit rate : 1 418 Kbps
Encoded date : UTC 2016-07-13 12:52:47
Writing application : mkvmerge v5.7.0 ('The 

Video
ID : 1
Format : AVC
Format/Info : Advanced Video Codec
Format profile : [email protected]
Format settings, CABAC : Yes
Format settings, ReFrames : 5 frames
Muxing mode : Header stripping
Codec ID : V_MPEG4/ISO/AVC
Duration : 2h 26mn
Bit rate mode : Variable
Bit rate : 969 Kbps
Maximum bit rate : 30.0 Mbps
Width : 672 pixels
Height : 288 pixels
Display aspect ratio : 2.35:1
Frame rate mode : Constant
Frame rate : 23.976 fps
Color space : YUV
Chroma subsampling : 4:2:0
Bit depth : 8 bits
Scan type : Progressive
Bits/(Pixel*Frame) : 0.209
Stream size : 984 MiB (66%)
 

Audio
ID : 2
Format : AC-3
Format/Info : Audio Coding 3
Mode extension : HI (hearing impaired)
Format settings, Endianness : Big
Muxing mode : Header stripping
Codec ID : A_AC3
Duration : 2h 26mn
Bit rate mode : Constant
Bit rate : 448 Kbps
Channel(s) : 6 channels
Channel positions : Front: L C R, Side: L R, LFE
Sampling rate : 48.0 KHz
Compression mode : Lossy
Stream size : 468 MiB (32%)
Title : DD AC3 5.1 
Language : Malayalam
Default : Yes
Forced : No

Text
ID : 3
Format : UTF-8
Codec ID : S_TEXT/UTF8
Codec ID/Info : UTF-8 Plain Text
Title : English
Language : English
Default : Yes
Forced : No


image image

image image

image image

image image

image image

image

Related Torrents

torrent name size files age seed leech

Sharing Widget


Download torrent
1.45 GB
seeders:370
leechers:205
Valleem Thetti Pulleem Thetti (2016) Malayalam DVDRip x264 AAC 5.1 E-Subs -[XclusivE]



To share this torrent use the code below and insert it into comments, status messages, forum posts or your signature.

Torrent: Valleem Thetti Pulleem Thett...4 AAC 5.1 E-Subs -[XclusivE]

Trackers

tracker name
udp://tracker.openbittorrent.com:80/announce
udp://tracker.coppersurfer.tk:6969/announce
udp://p4p.arenabg.ch:1337/announce
udp://p4p.arenabg.com:1337/announce
udp://tracker.aletorrenty.pl:2710/announce
udp://9.rarbg.to:2710/announce
udp://tracker.opentrackr.org:1337/announce
udp://tracker.piratepublic.com:1337/announce
udp://tracker.sktorrent.net:6969/announce
udp://zer0day.ch:1337/announce
µTorrent compatible trackers list

Locations

name
KickassTorrents
Torrent hash: CCD5F38B95404C4F6028026793A0DE0602B262F8

Top Comments

3
KarikinVellam5172
That's what I'm talking about, bruh. Worst movie of 2016 after King Liar.

All Comments

audio
8/10
video
8/10
please, leave only comments related to that torrent
Sign In

audio: 8video: 8
Thank You Alwayszack
That's what I'm talking about, bruh. Worst movie of 2016 after King Liar.


User Opinions

Report a bug Open chat