Traders 2015 BRRip XviD AC3-RARBG

seeders: 23
leechers: 7
updated:
Added by z0n3212.6M in Movies
Torrent verified. Downloaded 716 times.

DownloadFast Safe Anonymous
movies, software, shows...
Summary:

What if it made perfect sense for ordinary people to kill each other for money? Better than slow grinding financial ruin and misery, and all done according to a strict code by consenting adults. This is Trading.

Written by DeadShot10148.1K
Available in versions: 1080p720pBDRipHDRiPDVDRipx265
Traders 2015 BRRip XviD AC3-RARBG (Size: 1.29 GB)
  rarbg.com.avi 1.14 MB
  rarbg.com.txt 34 bytes
  Traders.2015.BRRip.XviD.AC3-RARBG.avi 1.29 GB
  Traders.2015.BRRip.XviD.AC3-RARBG.nfo 2.93 KB

Description


https://rarbg.to
Traders.2015.BRRip.XviD.AC3-RARBG

image
Screens :

image

image

image

image

image
Mediainfo :

Video
ID : 0
Format : MPEG-4 Visual
Format profile : [email protected]
Format settings, BVOP : No
Format settings, QPel : No
Format settings, GMC : No warppoints
Format settings, Matrix : Default (H.263)
Codec ID : XVID
Codec ID/Hint : XviD
Duration : 1h 29mn
Bit rate : 1 599 Kbps
Width : 720 pixels
Height : 400 pixels
Display aspect ratio : 16:9
Frame rate : 23.976 fps
Color space : YUV
Chroma subsampling : 4:2:0
Bit depth : 8 bits
Scan type : Progressive
Compression mode : Lossy
Bits/(Pixel*Frame) : 0.232
Stream size : 1.00 GiB (78%)
Writing library : Lavc56.60.100

Audio
ID : 1
Format : AC-3
Format/Info : Audio Coding 3
Mode extension : CM (complete main)
Format settings, Endianness : Big
Codec ID : 2000
Duration : 1h 29mn
Bit rate mode : Constant
Bit rate : 448 Kbps
Channel(s) : 6 channels
Channel positions : Front: L C R, Side: L R, LFE
Sampling rate : 48.0 KHz
Frame rate : 31.250 fps (1536 spf)
Compression mode : Lossy
Stream size : 288 MiB (22%)
Alignment : Aligned on interleaves
Interleave, duration : 42 ms (1.00 video frame)
Interleave, preload duration : 512 ms



Related Torrents

torrent name size files age seed leech

Sharing Widget


Download torrent
1.29 GB
seeders:23
leechers:7
Traders 2015 BRRip XviD AC3-RARBG



To share this torrent use the code below and insert it into comments, status messages, forum posts or your signature.

Torrent: Traders 2015 BRRip XviD AC3-RARBG

Trackers

tracker name
udp://tracker.openbittorrent.com:80/announce
udp://tracker.publicbt.com:80/announce
udp://tracker.coppersurfer.tk:6969/announce
udp://9.rarbg.me:2710/announce
udp://p4p.arenabg.com:1337/announce
http://tracker.trackerfix.com/announce
udp://9.rarbg.to:2710/announce
udp://tracker.opentrackr.org:1337/announce
µTorrent compatible trackers list

Locations

name
KickassTorrents
Torrent hash: 4487D6FD3A34F6969659828AB2E9F4F08721A270

All Comments

audio
0/10
video
0/10
please, leave only comments related to that torrent
Sign In


User Opinions

rscinmv332
Report a bug Open chat