Top Gear US S08E09 City Saviors 720p HDTV x264-DHD[rartv]

seeders: 58
leechers: 8
updated:
Added by z0n3212.56M in TV
Torrent verified. Downloaded 8,018 times.

DownloadFast Safe Anonymous
movies, software, shows...
  • View all Top Gear (US) episodes
  • Episode title: City Saviors
  • Episode: S08E09
  • Air date: 21 June 2016
  • TVmaze link: Top Gear (US)
  • Original run: 14 May 2010 — Present
  • Summary:

    The hosts Adam Ferrara, Rutledge Wood and Tanner Foust talk about what ever you need to know about cars and in every episode they go through a list of challenges to know who chose the best car that fits there challenges.

    Written by Thhaque414.89K
Available in versions: 720p480pHDTVx264x265
Top Gear US S08E09 City Saviors 720p HDTV x264-DHD[rartv] (Size: 920.94 MB)
  rarbg.com.txt 34 bytes
  Top.Gear.US.S08E09.City.Saviors.720p.HDTV.x264-DHD.mkv 920.94 MB
  top.gear.us.s08e09.720p-dhd.nfo 359 bytes

Description


https://rarbg.to
Top.Gear.US.S08E09.City.Saviors.720p.HDTV.x264-DHD[rartv]

image
Screens :

image
Mediainfo :

Video
ID : 1
Format : AVC
Format/Info : Advanced Video Codec
Format profile : [email protected]
Format settings, CABAC : Yes
Format settings, ReFrames : 5 frames
Codec ID : V_MPEG4/ISO/AVC
Duration : 41mn 54s
Bit rate : 2 686 Kbps
Width : 1 280 pixels
Height : 720 pixels
Display aspect ratio : 16:9
Frame rate mode : Constant
Frame rate : 23.976 (24000/1001) fps
Color space : YUV
Chroma subsampling : 4:2:0
Bit depth : 8 bits
Scan type : Progressive
Bits/(Pixel*Frame) : 0.122
Stream size : 805 MiB (87%)
Writing library : x264 core 148 r2694 3b70645
Encoding settings : cabac=1 / ref=5 / deblock=1:0:0 / analyse=0x3:0x113 / me=umh / subme=8 / psy=1 / psy_rd=1.00:0.00 / mixed_ref=1 / me_range=16 / chroma_me=1 / trellis=1 / 8x8dct=1 / cqm=0 / deadzone=21,11 / fast_pskip=1 / chroma_qp_offset=-2 / threads=12 / lookahead_threads=2 / sliced_threads=0 / nr=0 / decimate=1 / interlaced=0 / bluray_compat=0 / constrained_intra=0 / bframes=3 / b_pyramid=2 / b_adapt=2 / b_bias=0 / direct=3 / weightb=1 / open_gop=0 / weightp=2 / keyint=250 / keyint_min=23 / scenecut=40 / intra_refresh=0 / rc_lookahead=50 / rc=crf / mbtree=1 / crf=21.0 / qcomp=0.60 / qpmin=0 / qpmax=69 / qpstep=4 / ip_ratio=1.40 / aq=1:1.00
Default : Yes
Forced : No
Color range : Limited
Matrix coefficients : BT.709

Audio
ID : 2
Format : AC-3
Format/Info : Audio Coding 3
Mode extension : CM (complete main)
Format settings, Endianness : Big
Codec ID : A_AC3
Duration : 41mn 54s
Bit rate mode : Constant
Bit rate : 384 Kbps
Channel(s) : 6 channels
Channel positions : Front: L C R, Side: L R, LFE
Sampling rate : 48.0 KHz
Frame rate : 31.250 fps (1536 spf)
Compression mode : Lossy
Stream size : 115 MiB (12%)
Default : Yes
Forced : No

Text
ID : 3
Format : UTF-8
Codec ID : S_TEXT/UTF8
Codec ID/Info : UTF-8 Plain Text
Duration : 41mn 52s
Bit rate : 121 bps
Count of elements : 1193
Stream size : 37.4 KiB (0%)
Language : English
Default : No
Forced : No

Sharing Widget


Download torrent
920.94 MB
seeders:79
leechers:9
Top Gear US S08E09 City Saviors 720p HDTV x264-DHD[rartv]



To share this torrent use the code below and insert it into comments, status messages, forum posts or your signature.

Torrent: Top Gear US S08E09 City Saviors 720p HDTV x264-DHD[rartv]

Trackers

tracker name
udp://tracker.openbittorrent.com:80/announce
udp://tracker.publicbt.com:80/announce
udp://tracker.coppersurfer.tk:6969/announce
udp://9.rarbg.me:2710/announce
udp://p4p.arenabg.com:1337/announce
http://tracker.trackerfix.com/announce
udp://9.rarbg.to:2710/announce
udp://tracker.opentrackr.org:1337/announce
µTorrent compatible trackers list

Locations

name
KickassTorrents
Torrent hash: 7A4125480CDE1A88995456AA71EEDAC835553DE9

All Comments

audio
9/10
video
9/10
please, leave only comments related to that torrent
Sign In

It's too bad that the History channel cancelled Top Gear US. I hope another network picks it up. Tuesday June 28th is the last episode that will air.
audio: 10video: 10
Thanks
audio: 10video: 10
Why does the new episodes from episode 6 onward are renamed as Season 08??? They still only aired 6 Seasons...
audio: 9video: 9
Thanks!
Why is this listed as Season 8? They are only up to 6
Excellent quality. Also, this series just gets better and better. 10/10/10 a/v/m
Thanks man, much appreciated!
audio: 9video: 9
Thanks heaps!
audio: 9video: 9
Thank you :)

User Opinions

SkyMtn118.12K, mayhem6148075, planet14894, vick131634, aphomorf1021, Canadaguy1959662, Anis_88659, kuraikaze561, Nibar398, djdeeles36 ... And 61 more
Report a bug Open chat