The Purge : Election year - 2016 - CAM - English - x264 - AAC - Makintos13

seeders: 1566
leechers: 415
updated:
Added by FireofSword93.14K in Movies
Torrent verified. Downloaded 8,087 times.

DownloadFast Safe Anonymous
movies, software, shows...
Summary:

Set a land where one night of the year, murder is legal and terrible things happen to those unlucky enough to not be locked up tight in their homes.

Written by Rocky_45121.65K
Available in versions: 1080pScreenerCam
The Purge : Election year - 2016 - CAM - English - x264 - AAC - Makintos13 (Size: 699.08 MB)
  The Purge : Election year - 2016 - CAM - English - x264 - AAC - Makintos13.mkv 699.08 MB

Description

The Purge : Election year - 2016 - CAM - English - x264 - AAC - Makintos13

image

Format : Matroska
Format version : Version 4 / Version 2
File size : 699 MiB
Duration : 1h 33mn
Overall bit rate : 1 044 Kbps


Video
ID : 2
Format : AVC
Format/Info : Advanced Video Codec
Format profile : [email protected]
Format settings, CABAC : Yes
Format settings, ReFrames : 4 frames
Codec ID : V_MPEG4/ISO/AVC
Duration : 1h 33mn
Bit rate : 977 Kbps
Width : 720 pixels
Height : 376 pixels
Display aspect ratio : 1.915
Frame rate mode : Constant
Frame rate : 23.976 (24000/1001) fps
Color space : YUV
Chroma subsampling : 4:2:0
Bit depth : 8 bits
Scan type : Progressive
Bits/(Pixel*Frame) : 0.151
Stream size : 654 MiB (94%)
Forced : No

Audio
ID : 1
Format : AAC
Format/Info : Advanced Audio Codec
Format profile : LC
source : nffa
Codec ID : A_AAC
Duration : 1h 33mn
Bit rate : 64.7 Kbps
Channel(s) : 2 channels
Channel positions : Front: L R
Sampling rate : 48.0 KHz
Frame rate : 46.875 fps (1024 spf)
Compression mode : Lossy
Delay relative to video : 104ms
Stream size : 43.3 MiB (6%)
Title : Stereo
Language : English
Default : Yes
Forced : No

Note:

For those who are eager to watch.

Screens:

image image image image image image

Related Torrents

torrent name size files age seed leech

Sharing Widget


Download torrent
699.08 MB
seeders:1673
leechers:483
The Purge : Election year - 2016 - CAM - English - x264 - AAC - Makintos13



To share this torrent use the code below and insert it into comments, status messages, forum posts or your signature.

Torrent: The Purge : Election year - ...sh - x264 - AAC - Makintos13

Trackers

tracker name
udp://tracker.openbittorrent.com:80/announce
udp://tracker.coppersurfer.tk:6969/announce
udp://9.rarbg.me:2710/announce
udp://tracker.trackerfix.com:80/announce
udp://p4p.arenabg.com:1337/announce
udp://explodie.org:6969/announce
udp://9.rarbg.to:2710/announce
udp://tracker.opentrackr.org:1337/announce
udp://tracker.piratepublic.com:1337/announce
udp://tracker.sktorrent.net:6969/announce
µTorrent compatible trackers list

Locations

name
KickassTorrents
Torrent hash: E3E017A7A86CAE01435F4A044638BE0968DD6348

Uploader Comments

17
FireofSword93.14K
Uploader
This is now the best can be provided ! As said it note its for those who are most eager to watch the movie. As soon as Good source comes in hand we will put it on the website. Few mins are missing.

Thanks.

Last edited by FireofSword, yesterday

Top Comments

16
Solidus2584
watch it in theaters if you dont like it. stop complaining about free stuff. your always welcome to try and do it better. but most likely you will return to these comment boards to complain about the risk and hard work people put in to bring you these cam copies. entitlement complex
13
ilscuro701
marshtm6

Why don't you go to the cinema with a camcorder and do a better job?

Last edited by ilscuro, 15 hours ago

6
itsmejoo59
Funny how most (not all) of the people's negative comments shows that they haven't even downloaded the movie. I take that into consideration when I'm debating whether to download or not.

All Comments

audio
6/10
video
4/10
please, leave only comments related to that torrent
Sign In

Is the flick good? I could care less about the quality, because I know that it is a cam. I don't understand the negative comments when it is apparent that it is a cam, it is free, and you don't even have to leave your house to see it. If you don't like cams then don't bother downloading them, or leaving silly comments.
why cant i download it?
audio: 10video: 10
thank you
If a camera thats not the best quality and is not situated on a tripod dosent meet your cam rip standards just wait for a better one to come out. i miss when hive cm8 leaked screeners before release day but dont be angry at the quality of free stuff
audio: 7video: 3
nice try but it starts late and is way out of focus
The moment I read from the title the word "CAM" I refrain from downloading any movies posted here in KAT because I know that I would not enjoy watching it. But I did not ever complain about it as a sign of respect to uploaders' effort and time spent sharing those stuff. So, please stop complaining and download only at your own risk and desire thumb_up Thank you!
Show More All

User Opinions

Alex_Kid57.22K, nzs7863, Toretto9813853, Shinnok_2822, cyborg0091798, ray94851233, TRUESOLDIER4732, kenta1acc500, macky11395, muldi_djs306 ... And 38 more
vineezy4011, john9843398, Midnite67722275, nick_ncjcomputers2112, faustdead1559, B6ssg6s170, a.k.a_jealoux157, binyat_99144, DUBAIWA7SHH107, Darkdackel6 ... And 4 more
Report a bug Open chat