The Lighthorsemen 1987 1080p BluRay H264 AAC-RARBG

seeders: 8
leechers: 7
updated:
Added by z0n3212.56M in Movies > Highres Movies
Torrent verified. Downloaded 0 times.

DownloadFast Safe Anonymous
movies, software, shows...
Summary:

In 1917 when the British forces are bogged down in front of the Turkish and German lines in Palestine they rely on the Australian light horse regiment to break the deadlock.

Written by Sarky_Noize16.21K
Available in versions: 1080p720pBlu-RayHDRiP
The Lighthorsemen 1987 1080p BluRay H264 AAC-RARBG (Size: 2.22 GB)
  rarbg.com.mp4 992.93 KB
  rarbg.com.txt 34 bytes
  The.Lighthorsemen.1987.1080p.BluRay.H264.AAC-RARBG.mp4 2.22 GB
  The.Lighthorsemen.1987.1080p.BluRay.H264.AAC-RARBG.nfo 3.92 KB

Description


https://rarbg.to
The.Lighthorsemen.1987.1080p.BluRay.H264.AAC-RARBG

image
Screens :

image

image

image

image

image
Mediainfo :

Video
ID : 1
Format : AVC
Format/Info : Advanced Video Codec
Format profile : [email protected]
Format settings, CABAC : Yes
Format settings, ReFrames : 4 frames
Codec ID : avc1
Codec ID/Info : Advanced Video Coding
Duration : 1h 56mn
Bit rate : 2 500 Kbps
Width : 1 920 pixels
Height : 800 pixels
Display aspect ratio : 2.40:1
Frame rate mode : Constant
Frame rate : 23.976 (23976/1000) fps
Color space : YUV
Chroma subsampling : 4:2:0
Bit depth : 8 bits
Scan type : Progressive
Bits/(Pixel*Frame) : 0.068
Stream size : 2.03 GiB (92%)
Writing library : x264 core 148 r2597M e86f3a1
Encoding settings : cabac=1 / ref=4 / deblock=1:-1:-1 / analyse=0x3:0x113 / me=umh / subme=9 / psy=1 / psy_rd=1.00:0.15 / mixed_ref=1 / me_range=24 / chroma_me=1 / trellis=2 / 8x8dct=1 / cqm=0 / deadzone=21,11 / fast_pskip=1 / chroma_qp_offset=-3 / threads=32 / lookahead_threads=4 / sliced_threads=0 / nr=0 / decimate=1 / interlaced=0 / bluray_compat=0 / constrained_intra=0 / bframes=3 / b_pyramid=2 / b_adapt=2 / b_bias=0 / direct=3 / weightb=1 / open_gop=0 / weightp=2 / keyint=250 / keyint_min=25 / scenecut=40 / intra_refresh=0 / rc_lookahead=50 / rc=2pass / mbtree=1 / bitrate=2500 / ratetol=1.0 / qcomp=0.60 / qpmin=0 / qpmax=69 / qpstep=4 / cplxblur=20.0 / qblur=0.5 / vbv_maxrate=31250 / vbv_bufsize=31250 / nal_hrd=none / filler=0 / ip_ratio=1.40 / aq=3:1.00
Encoded date : UTC 2016-07-13 11:43:39
Tagged date : UTC 2016-07-13 11:43:39

Audio
ID : 2
Format : AAC
Format/Info : Advanced Audio Codec
Format profile : LC
Codec ID : 40
Duration : 1h 56mn
Bit rate mode : Constant
Bit rate : 224 Kbps
Channel(s) : 2 channels
Channel(s)_Original : 6 channels
Channel positions : Front: L C R, Side: L R, LFE
Sampling rate : 48.0 KHz
Frame rate : 46.875 fps (1024 spf)
Compression mode : Lossy
Stream size : 186 MiB (8%)
Language : English
Default : Yes
Alternate group : 1
Encoded date : UTC 2016-07-13 11:43:39
Tagged date : UTC 2016-07-13 11:43:39



Related Torrents

torrent name size files age seed leech

Sharing Widget


Download torrent
2.22 GB
seeders:0
leechers:0
The Lighthorsemen 1987 1080p BluRay H264 AAC-RARBG



To share this torrent use the code below and insert it into comments, status messages, forum posts or your signature.

Torrent: The Lighthorsemen 1987 1080p BluRay H264 AAC-RARBG

Trackers

tracker name
udp://tracker.openbittorrent.com:80/announce
udp://tracker.publicbt.com:80/announce
udp://tracker.coppersurfer.tk:6969/announce
udp://9.rarbg.me:2710/announce
udp://p4p.arenabg.com:1337/announce
http://tracker.trackerfix.com/announce
udp://9.rarbg.to:2710/announce
udp://tracker.opentrackr.org:1337/announce
µTorrent compatible trackers list

Locations

name
KickassTorrents
Torrent hash: D6E53F5A351C7E397A64659608A132D72C24A3E7

All Comments

audio
0/10
video
0/10
please, leave only comments related to that torrent
Sign In

Report a bug Open chat