The Legend of Tarzan 2016 HDTS XviD-VAiN

seeders: 3033
leechers: 2634
updated:
Added by Silmarillion796.15K in Movies
Torrent verified. Downloaded 19,329 times.

DownloadFast Safe Anonymous
movies, software, shows...
  • add The Legend of Tarzan to bookmarks
  • Release date: 01 July 2016
  • Writers: Adam Cozad (screenplay), Craig Brewer (screenplay), Craig Brewer (story by), Adam Cozad (story by), Edgar Rice Burroughs (Based on the'Tarzan' stories created by)
  • Director: David Yates
Summary:

It has been years since the man once known as Tarzan (Skarsgård) left the jungles of Africa behind for a gentrified life as John Clayton III, Lord Greystoke, with his beloved wife, Jane (Robbie) at his side. Now, he has been invited back to the Congo to serve as a trade emissary of Parliament, unaware that he is a pawn in a deadly convergence of greed and revenge, masterminded by the Belgian, Captain Leon Rom (Waltz). But those behind the murderous plot have no idea what they are about to unleash.

Written by Anette14151.19K Last edited by zoone, 3 days ago
Available in versions: HDTCx264x265ScreenerTeleSyncCam
The Legend of Tarzan 2016 HDTS XviD-VAiN (Size: 1.48 GB)
  The.Legend.of.Tarzan.2016.HDTS.XviD-VAiN.avi 1.47 GB
  Torrent Downloaded From ExtraTorrent.cc.txt 338 bytes
  VAIN.nfo 2.92 KB
  sample.avi 12.85 MB

Description

image


http://www.imdb.com/title/tt0918940/


Tarzan, having acclimated to life in London, is called back to his former home in the jungle to investigate the activities at a mining encampment.

Director: David Yates
Writers: Adam Cozad (screenplay), Craig Brewer (screenplay)
Stars: Alexander Skarsgård, Rory J. Saper, Christian Stevens
Genres: Action | Adventure
Country: USA
Language: English


Basic Information
Format : AVI
Format/Info : Audio Video Interleave
File size : 1.47 GiB
Duration : 1h 45mn
Overall bit rate : 1 990 Kbps
Writing application : VirtualDubMod 1.5.10.2 (build 2540/release)
Writing library : VirtualDubMod build 2540/release

Video
ID : 0
Format : MPEG-4 Visual
Format profile : Advanced [email protected]
Format settings, BVOP : 2
Format settings, QPel : No
Format settings, GMC : No warppoints
Format settings, Matrix : Default (H.263)
Muxing mode : Packed bitstream
Codec ID : XVID
Codec ID/Hint : XviD
Duration : 1h 45mn
Bit rate : 1 786 Kbps
Width : 720 pixels
Height : 304 pixels
Display aspect ratio : 2.35:1
Frame rate : 30.000 fps
Color space : YUV
Chroma subsampling : 4:2:0
Bit depth : 8 bits
Scan type : Progressive
Compression mode : Lossy
Bits/(Pixel*Frame) : 0.272
Stream size : 1.32 GiB (90%)
Writing library : XviD 64

Audio
ID : 1
Format : MPEG Audio
Format version : Version 1
Format profile : Layer 3
Mode : Joint stereo
Mode extension : MS Stereo
Codec ID : 55
Codec ID/Hint : MP3
Duration : 1h 45mn
Bit rate mode : Constant
Bit rate : 192 Kbps
Channel(s) : 2 channels
Sampling rate : 48.0 KHz
Compression mode : Lossy
Stream size : 145 MiB (10%)
Alignment : Aligned on interleaves
Interleave, duration : 33 ms (1.00 video frame)
Interleave, preload duratio : 504 ms


E N C O D E R S . N O T E S . . .

SOURCE......: ViDEO...X264-CPG
............: AUDiO...X264-CPG
SAMPLE......: Yippers
ADDED NOTE..: Love Me.... Love You...
Took sum ol' poo-shine and polished this turd....


Mod Edit: Wrong Screens

Related Torrents

torrent name size files age seed leech

Sharing Widget


Download torrent
1.48 GB
seeders:2954
leechers:2441
The Legend of Tarzan 2016 HDTS XviD-VAiN



To share this torrent use the code below and insert it into comments, status messages, forum posts or your signature.

Torrent: The Legend of Tarzan 2016 HDTS XviD-VAiN

Trackers

tracker name
udp://tracker.openbittorrent.com:80/announce
udp://tracker.coppersurfer.tk:6969/announce
udp://p4p.arenabg.ch:1337/announce
udp://p4p.arenabg.com:1337/announce
udp://explodie.org:6969/announce
udp://tracker.aletorrenty.pl:2710/announce
udp://9.rarbg.to:2710/announce
udp://torrent.gresille.org:80/announce
udp://tracker.opentrackr.org:1337/announce
udp://tracker.piratepublic.com:1337/announce
µTorrent compatible trackers list

Locations

name
KickassTorrents
ExtraTorrent
Torrent hash: 3AA467D01EAF8FBBCD35828F3C07AA91EC028217

Top Comments

10
Crepitusish212.54K
Screens are removed. Mistakes happen. This is a TS/HD
7
TimeBandits94.51K
audio: 7video: 6
Good download, good Cam, thanks for avi format & sharing.biggrin
3
imaycon34
audio: 8video: 6
same as cpg.... good quality 4 a cam
2
1800-Skydive1218
Good quality, Thanks!

All Comments

audio
6/10
video
5/10
please, leave only comments related to that torrent
Sign In

Thank for up loader.. good ONE..
audio: 8video: 8
lovely quality
audio: 8video: 6
same as cpg.... good quality 4 a cam
Show More All
audio: 3video: 3

User Opinions

panosol107.97K, Alex_Kid57.22K, Belegatu12.18K, Bremanesk9496, Uncle Bob1770, Hunterstech1687, kambizm527, borosz1978150, sallidxb34, BoDeano22 ... And 82 more
exadap6011, chris3playp1664, supressi1277, djtonic76288, KoolCat2173, LIL3000152, jordanchoi8, ExCaperCanuck1, babbon0
Report a bug Open chat