Nicky Jam - Hasta el Amanecer (2016 Reggaeton)

seeders: 290
leechers: 3
updated:
Added by MeRaDil7025 in Movies > Music videos
Torrent verified. Downloaded 205,412 times.

DownloadFast Safe Anonymous
movies, software, shows...
Nicky Jam - Hasta el Amanecer (2016 Reggaeton) (Size: 79.74 MB)
  Nicky Jam - Hasta El Amanecer.mp4 79.74 MB

Description

http://gifyu.com/images/jam-1.png
NICKY JAM - HASTA EL AMANECER

MEDIA INFO
General
Nicky Jam - Hasta el Amanecer
Format : MPEG-4
Format profile : Base Media
Codec ID : isom
File size : 79.7 MiB
Duration : 4mn 5s
Overall bit rate : 2 721 Kbps
MusicVid name : Hasta el Amanecer
Performer : Nicky Jam
Genre : Reggaeton
ContentType : Music Video
Recorded date : 2016
Writing application : Lavf56.32.100 / MeRaDil
Cover : Yes
Release date : USA - january 14 - 2016

Video
ID : 1
Format : AVC
Format/Info : Advanced Video Codec
Format profile : [email protected]
Format settings, CABAC : Yes
Format settings, ReFrames : 2 frames
Codec ID : avc1
Codec ID/Info : Advanced Video Coding
Duration : 4mn 5s
Bit rate : 2 450 Kbps
Width : 1 920 pixels
Height : 1 080 pixels
Display aspect ratio : 16:9
Frame rate mode : Variable
Frame rate : 23.976 fps
Stream size : 71.8 MiB (90%)

Audio
ID : 2
Format : AAC
Format/Info : Advanced Audio Codec
Format profile : LC
Codec ID : 40
Duration : 4mn 5s
Bit rate mode : Constant
Bit rate : 256 Kbps
Channel(s) : 2 channels
Channel positions : Front: L R
Sampling rate : 44.1 KHz
Compression mode : Lossy
Stream size : 7.50 MiB (9%)

http://gifyu.com/images/jam.png

Sharing Widget


Download torrent
79.74 MB
seeders:353
leechers:3
Nicky Jam - Hasta el Amanecer (2016 Reggaeton)



To share this torrent use the code below and insert it into comments, status messages, forum posts or your signature.

Torrent: Nicky Jam - Hasta el Amanecer (2016 Reggaeton)

Trackers

tracker name
http://pow7.com/announce
udp://tracker.openbittorrent.com:80/announce
udp://tracker.publicbt.com:80/announce
udp://tracker.coppersurfer.tk:6969/announce
udp://glotorrents.pw:6969/announce
http://mgtracker.org:2710/announce
udp://tracker.leechers-paradise.org:6969/announce
http://tracker.mg64.net:6881/announce
udp://tracker.glotorrents.com:6969/announce
udp://opentrackr.org:1337/announce
µTorrent compatible trackers list

Locations

name
KickassTorrents
Torrent hash: A2CDC9ABA33298D5D35C2BCB4B81D700C5E47C65

All Comments

audio
0/10
video
0/10
please, leave only comments related to that torrent
Sign In

User Opinions

Stuffytick9181.77K, jaka1829712, bladereap3r6325, mike44765616, Valkataa4349, Don_RIAS1374, caligirlnani1040, vas89919, boldtaurus108, tanveerkhan994 ... And 21 more
HankRillek1433, mehdi_2_2218
Report a bug Open chat