Lil Wayne, Wiz Khalifa & Imagine Dragons ft. Logic, Ty Dolla $ign & X Ambassadors - Sucker for Pain (from Suicide Squad: The Album) 1080p [P-DawG] [CPUL].mp4

seeders: 69
leechers: 6
updated:
Added by P-DawG9802 in Movies > Music videos
Torrent verified. Downloaded 869 times.

DownloadFast Safe Anonymous
movies, software, shows...
Lil Wayne, Wiz Khalifa & Imagine Dragons ft. Logic, Ty Dolla $ign & X Ambassadors - Sucker for... (Size: 106.26 MB)
  Lil Wayne, Wiz Khalifa & Imagine Dragons ft. Logic, Ty Dolla $ign & X Ambassadors -... 106.26 MB

Description

[P-DawG]





image




Cover:-


image




Screens:-



image



General Info:-


General

Complete name : Lil Wayne, Wiz Khalifa & Imagine Dragons ft. Logic, Ty Dolla $ign & X Ambassadors - Sucker for Pain [P-DawG].mp4
Format : MPEG-4
Format profile : Base Media
Codec ID : isom
File size : 106 MiB
Duration : 4mn 57s
Overall bit rate : 2 993 Kbps
Movie name : Sucker for Pain
Album : Suicide Squad:The Album
Track name/Position : 2
Performer : Lil Wayne, Wiz Khalifa & Imagine Dragons ft. Logic, Ty Dolla $ign & X Ambassadors
Genre : Rap
Ul'ed bY : [P-DawG] for CPUL Releases


Video

ID : 1
Format : AVC
Format/Info : Advanced Video Codec
Codec ID : avc1
Codec ID/Info : Advanced Video Coding
Duration : 4mn 57s
Bit rate mode : Variable
Bit rate : 2 857 Kbps
Width : 1 920 pixels
Height : 1 080 pixels
Display aspect ratio : 16:9
Stream size : 101 MiB (95%)


Audio

ID : 2
Format : AAC
Format/Info : Advanced Audio Codec
Format profile : LC
Codec ID : 40
Duration : 4mn 57s
Bit rate mode : Constant
Bit rate : 126 Kbps
Channel(s) : 2 channels
Channel positions : Front: L R
Sampling rate : 44.1 KHz
Compression mode : Lossy
Stream size : 4.46 MiB (4%)

image

Related Torrents

torrent name size files age seed leech

Sharing Widget


Download torrent
106.26 MB
seeders:46
leechers:6
Lil Wayne, Wiz Khalifa & Imagine Dragons ft. Logic, Ty Dolla $ign & X Ambassadors - Sucker for Pain (from Suicide Squad: The Album) 1080p [P-DawG] [CPUL].mp4



To share this torrent use the code below and insert it into comments, status messages, forum posts or your signature.

Torrent: Lil Wayne, Wiz Khalifa & Ima...m) 1080p [P-DawG] [CPUL].mp4

Trackers

tracker name
http://pow7.com/announce
udp://tracker.openbittorrent.com:80/announce
udp://tracker.coppersurfer.tk:6969/announce
udp://9.rarbg.me:2710/announce
udp://p4p.arenabg.com:1337/announce
udp://torrent.gresille.org:80/announce
udp://tracker.opentrackr.org:1337/announce
µTorrent compatible trackers list

Locations

name
KickassTorrents
Torrent hash: 09023A96CF4FE8544875D0B8F6768E819CD4ED15

Uploader Comments

1
SkyMtn118.13K
audio: 9video: 9
Thank you :)
0
P-DawG9802
Uploader
No worries smile
1
FelixDracul926
Thank you very much for the great upload!
0
P-DawG9802
Uploader
You got it thumb_up
1
._Eighty_.10
audio: 10video: 10
Ah,addicted to this.Thanks.
0
P-DawG9802
Uploader
Same here mate;
1
anonymous
audio: 10video: 10
Thanks Buddy! for the Brilliant Upload
0
P-DawG9802
Uploader
You got it cool
1
The.Banshee7394
audio: 10video: 10
Thanks P-DawG9802 for the great upload!
1
P-DawG9802
Uploader
You got it mate smile

All Comments

audio
9/10
video
9/10
please, leave only comments related to that torrent
Sign In

audio: 10video: 10
Really great stuff, thanx a lot;
Greetz from Holland; :)) CHEESE
audio: 10video: 10
Thanks P-DawG9802 for the great upload!
You got it mate smile

audio: 10video: 10
Thanks Buddy! for the Brilliant Upload

audio: 10video: 10
Ah,addicted to this.Thanks.
Same here mate;

Thank you very much for the great upload!

audio: 10video: 10
Thank you very much for the great upload!
You got it mate pirate

audio: 9video: 9
Thank you :)


User Opinions

Stuffytick9182.31K, SkyMtn118.13K, Moonblink.2237.38K, The_D..2061, Lilalves1873, gamefear1800, Liddells1660, PorePresident770, seVen.653, jmack11347 ... And 18 more
Report a bug Open chat