Finding Dory 2016 HDTS x264 AC3-VAiN

seeders: 1473
leechers: 1012
updated:
Added by FireofSword93.13K in Movies > Animation
Torrent verified. Downloaded 8,696 times.

DownloadFast Safe Anonymous
movies, software, shows...
  • add Finding Dory to bookmarks
  • Release date: 17 June 2016
  • Writers: Andrew Stanton (original story by), Andrew Stanton (screenplay), Victoria Strouse (screenplay), Bob Peterson (additional screenplay material by), Angus MacLane (additional story material by)
  • Language: English
Summary:

Taking place a year after Finding Nemo, Dory goes on a journey to reunite with her loved ones, and everyone learns a few things about the true meaning of family along the way.

Written by AgentEncore64.9K Last edited by WyldChyld, 9 months ago
Available in versions: x264x265TeleSyncCam
Finding Dory 2016 HDTS x264 AC3-VAiN (Size: 1.38 GB)
  Finding,Dory.2016.HDTS.x264.AC3-VAiN.mkv 1.37 GB
  VAIN.nfo 3.31 KB
  sample.mkv 14.63 MB
  screenz

Description

Finding Dory 2016 HDTS x264 AC3-VAiN


image

P R E S E N T S . . . .

Finding.Dory.2016.HDTS.x264.AC3-VAiN

iMDB........: http://www.imdb.com/title/tt2277860/



T E C H N i C A L . i N F O . . .

Basic Information
Format : Matroska
Format version : Version 4 / Version 2
File size : 1.37 GiB
Duration : 1h 26mn
Overall bit rate mode : Variable
Overall bit rate : 2 255 Kbps
Encoded date : UTC 2016-07-10 21:25:07
Writing application : mkvmerge v8.3.0 ('Over the Horizon') 64bit
Writing library : libebml v1.3.1 + libmatroska v1.4.2

Video
ID : 1
Format : AVC
Format/Info : Advanced Video Codec
Format profile : [email protected]
Format settings, CABAC : Yes
Format settings, ReFrames : 3 frames
Codec ID : V_MPEG4/ISO/AVC
Duration : 1h 26mn
Bit rate mode : Variable
Bit rate : 1 997 Kbps
Maximum bit rate : 40.0 Mbps
Width : 720 pixels
Height : 384 pixels
Display aspect ratio : 1.85:1
Frame rate mode : Constant
Frame rate : 29.970 (30000/1001) fps
Color space : YUV
Chroma subsampling : 4:2:0
Bit depth : 8 bits
Scan type : Progressive
Bits/(Pixel*Frame) : 0.241
Stream size : 1.21 GiB (89%)
Writing library : x264 core 148 r2692 64f4e24

Language : English
Default : Yes
Forced : No
Color range : Full
Color primaries : BT.709
Transfer characteristics : BT.709
Matrix coefficients : BT.709

Audio
ID : 2
Format : AC-3
Format/Info : Audio Coding 3
Mode extension : CM (complete main)
Format settings, Endianness : Big
Codec ID : A_AC3
Duration : 1h 26mn
Bit rate mode : Constant
Bit rate : 256 Kbps
Channel(s) : 2 channels
Channel positions : Front: L R
Sampling rate : 48.0 KHz
Frame rate : 31.250 fps (1536 spf)
Compression mode : Lossy
Delay relative to video : 16ms
Stream size : 159 MiB (11%)
Language : English
Default : Yes
Forced : No





E N C O D E R S . N O T E S . . .

SOURCE......: ViDEO...CPG
............: AUDiO...CPG
SAMPLE......: Yippers
ADDED NOTE..: Love Me.... Love You...fixed colours, sharp & whites and balcks... then sprayed sum ol' poo-shine and poof.... fixed sexy like....



S C R E E N . S H O T S . . .

image image image image image image

Related Torrents

torrent name size files age seed leech

Sharing Widget


Download torrent
1.38 GB
seeders:1445
leechers:1000
Finding Dory 2016 HDTS x264 AC3-VAiN



To share this torrent use the code below and insert it into comments, status messages, forum posts or your signature.

Torrent: Finding Dory 2016 HDTS x264 AC3-VAiN

Trackers

tracker name
udp://tracker.openbittorrent.com:80/announce
udp://tracker.coppersurfer.tk:6969/announce
udp://9.rarbg.me:2710/announce
udp://tracker.trackerfix.com:80/announce
udp://p4p.arenabg.com:1337/announce
udp://explodie.org:6969/announce
udp://9.rarbg.to:2710/announce
udp://tracker.opentrackr.org:1337/announce
udp://tracker.piratepublic.com:1337/announce
udp://tracker.sktorrent.net:6969/announce
µTorrent compatible trackers list

Locations

name
KickassTorrents
ExtraTorrent
Torrent hash: 8AC53A35DEB6C6CE0A29243C20114F2B8D5F9962

Top Comments

8
Chunk197847
audio: 10video: 6
The sound is line audio but the image is pretty grainy with a constant vignette. It's not difficult to see or anything, and it's still very watchable, it's just not really close to the sharp picture.

Thanks for the upload!
2
anonymous
What do you think those images are???

All Comments

audio
5/10
video
4/10
please, leave only comments related to that torrent
Sign In

Finding Dory the type of film you want to wait until there's a 1080p Blu Ray version.
Dory dies at the end, don't bother watching.
audio: 1video: 1
1. CAM;
2. very dark;
3. if you dont mind the shadow of someones head popping up on the left side bottom screen, you can continue to watch.

I deleted this file from my media.
is this the same cam as from like 3 weeks ago?
Show More All

User Opinions

Alex_Kid57.22K, orlandos6245, sumlain6091, bosslove723405, SNOWBALLS103340, andy54212133, theAtreyu1905, oacuspocus1763, urtoasted813219, sloggerjnr60 ... And 78 more
omzairul323, lstrike153, dragobet48
Report a bug Open chat