Fifth Harmony ft. Fetty Wap - All In My Head (Flex) 1080p [P-DawG] [CPUL].mp4

seeders: 48
leechers: 3
updated:
Added by P-DawG9796 in Movies > Music videos
Torrent verified. Downloaded 379 times.

DownloadFast Safe Anonymous
movies, software, shows...
Fifth Harmony ft. Fetty Wap - All In My Head (Flex) 1080p [P-DawG] [CPUL].mp4 (Size: 88.92 MB)
  Fifth Harmony ft. Fetty Wap - All In My Head (Flex) [P-DawG].mp4 88.92 MB

Description

[P-DawG]





image




Special Upload as per Request from The.Banshee7389



Cover:-


image




Screens:-



image



General Info:-


General

Complete name : Fifth Harmony ft. Fetty Wap - All In My Head (Flex) [P-DawG].mp4
Format : MPEG-4
Format profile : Base Media
Codec ID : isom
File size : 88.9 MiB
Duration : 3mn 31s
Overall bit rate : 3 529 Kbps
Movie name : All In My Head (Flex)
Album : 7/27
Track name/Position : 6
Track name/Total : 10
Performer : Fifth Harmony ft. Fetty Wap
Genre : Pop


Video

ID : 1
Format : AVC
Codec ID/Info : Advanced Video Coding
Duration : 3mn 31s
Bit rate mode : Variable
Bit rate : 3 396 Kbps
Width : 1 920 pixels
Height : 1 080 pixels
Display aspect ratio : 16:9
Frame rate mode : Constant
Frame rate : 23.976 fps
Stream size : 85.6 MiB (96%)


Audio

ID : 2
Format : AAC
Format/Info : Advanced Audio Codec
Format profile : LC
Codec ID : 40
Duration : 3mn 31s
Bit rate mode : Constant
Bit rate : 126 Kbps
Channel(s) : 2 channels
Channel positions : Front: L R
Sampling rate : 44.1 KHz
Compression mode : Lossy
Stream size : 3.16 MiB (4%)

image

Related Torrents

torrent name size files age seed leech

Sharing Widget


Download torrent
88.92 MB
seeders:40
leechers:6
Fifth Harmony ft. Fetty Wap - All In My Head (Flex) 1080p [P-DawG] [CPUL].mp4



To share this torrent use the code below and insert it into comments, status messages, forum posts or your signature.

Torrent: Fifth Harmony ft. Fetty Wap ...x) 1080p [P-DawG] [CPUL].mp4

Trackers

tracker name
http://pow7.com/announce
udp://tracker.openbittorrent.com:80/announce
udp://tracker.coppersurfer.tk:6969/announce
udp://9.rarbg.me:2710/announce
udp://p4p.arenabg.com:1337/announce
udp://torrent.gresille.org:80/announce
udp://tracker.opentrackr.org:1337/announce
µTorrent compatible trackers list

Locations

name
KickassTorrents
Torrent hash: 71100BE6F3CFBBA518FD3E25F648EE24FF65E65F

Uploader Comments

1
P-DawG9796
Uploader
Re-Uploaded due to some error with previous one

Last edited by P-DawG, 2 weeks ago

1
The.Banshee7389
audio: 10video: 10
Thanks P-DawG9796 for the great upload!
1
P-DawG9796
Uploader
No problem mate

All Comments

audio
10/10
video
10/10
please, leave only comments related to that torrent
Sign In

audio: 10video: 10
Thanks P-DawG9796 for the great upload!
No problem mate

Re-Uploaded due to some error with previous one

Last edited by P-DawG, 2 weeks ago


User Opinions

Stuffytick9181.59K, WyldChyld110.58K, The.Banshee7389
Report a bug Open chat