Fear the Walking Dead Flight 462 S01 COMPLETE 720p WEBRip x264 AAC2 0-FGT

seeders: 0
leechers: 0
updated:
Added by z0n3212.56M in TV
Torrent verified. Downloaded 5,348 times.

DownloadFast Safe Anonymous
movies, software, shows...
  • View all Fear the Walking Dead: Flight 462 episodes
  • Episode: S04E02
  • IMDb link: 5095238
  • TVmaze link: Fear the Walking Dead: Flight 462
  • Original run: 04 October 2015 — Present
  • Summary:

    Fear the Walking Dead: Flight 462 (2015)


    Series based in the same universe as The Walking Dead (2010), and Fear The Walking Dead (2015). A webseries in one-minute episodes. In Fear the Walking Dead: Flight 462 you will follow passengers on flight 462, and how they will handle the situation when one of the passengers seems to be infected.

    Written by Mafketel15.76K
Available in versions: 720px265
Fear the Walking Dead Flight 462 S01 COMPLETE 720p WEBRip x264 AAC2 0-FGT (Size: 275.68 MB)
  Fear.the.Walking.Dead.Flight.462.S01.COMPLETE.720p.WEBRip.x264.AAC2.0-FGT.mp4 275.68 MB
  Fear.the.Walking.Dead.Flight.462.S01.COMPLETE.720p.WEBRip.x264.AAC2.0-FGT.nfo 2.46 KB
  rarbg.com.txt 34 bytes

Description

https://rarbg.to
Fear.the.Walking.Dead.Flight.462.S01.COMPLETE.720p.WEBRip.x264.AAC2.0-FGT

image



Screens :

image

image



Mediainfo :

Video
ID : 1
Format : MPEG-4 Visual
Format profile : [email protected]
Format settings, BVOP : No
Format settings, QPel : No
Format settings, GMC : No warppoints
Format settings, Matrix : Default (H.263)
Codec ID : 20
Duration : 14mn 29s
Bit rate mode : Constant
Bit rate : 2 502 Kbps
Width : 1 280 pixels
Height : 720 pixels
Display aspect ratio : 16:9
Frame rate mode : Constant
Frame rate : 29.970 (29970/1000) fps
Color space : YUV
Chroma subsampling : 4:2:0
Bit depth : 8 bits
Scan type : Progressive
Compression mode : Lossy
Bits/(Pixel*Frame) : 0.091
Stream size : 259 MiB (94%)
Writing library : Lavc55.39.101

Audio
ID : 2
Format : AAC
Format/Info : Advanced Audio Codec
Format profile : LC
Codec ID : 40
Duration : 14mn 29s
Bit rate mode : Variable
Bit rate : 152 Kbps
Maximum bit rate : 320 Kbps
Channel(s) : 2 channels
Channel positions : Front: L R
Sampling rate : 44.1 KHz
Frame rate : 43.066 fps (1024 spf)
Compression mode : Lossy
Stream size : 15.7 MiB (6%)
Default : Yes
Alternate group : 1





Related Torrents

torrent name size files age seed leech

Sharing Widget


Download torrent
275.68 MB
seeders:129
leechers:7
Fear the Walking Dead Flight 462 S01 COMPLETE 720p WEBRip x264 AAC2 0-FGT



To share this torrent use the code below and insert it into comments, status messages, forum posts or your signature.

Torrent: Fear the Walking Dead Flight... 720p WEBRip x264 AAC2 0-FGT

Trackers

tracker name
udp://tracker.openbittorrent.com:80/announce
http://retracker.krs-ix.ru/announce
udp://tracker.coppersurfer.tk:6969/announce
http://tracker.aletorrenty.pl:2710/announce
udp://glotorrents.pw:6969/announce
http://mgtracker.org:2710/announce
http://announce.xxx-tracker.com:2710/announce
http://tracker.mg64.net:6881/announce
udp://tracker.opentrackr.org:1337/announce
udp://zer0day.ch:1337/announce
µTorrent compatible trackers list

Locations

name
KickassTorrents
Torrent hash: 97F5F9E6ECE6355609D59885DEC922ADBB0C827F

All Comments

audio
9/10
video
9/10
please, leave only comments related to that torrent
Sign In

audio: 9video: 9
Thanx!
WTF? 1 minute episodes? are you crazy, no such thing, each episode is aprox. 40 minutes. what the hell is this crap and why upload 1 minute clips??????
what's going on? Are there full episodes or are they webisodes?

audio: 10video: 10
Excellent!
audio: 9video: 9
great quality thumb_upthumb_up
audio: 10video: 10
Great quality, great show.
audio: 9video: 9
all good
What happen to all the other episodes of season 2 of FTWD? I can't find any of them...anyone know? THanks, this was a great set for flight 462
Show More All

User Opinions

HalfMelted11.16K, phcon9681, moorebounce4590, rlcwallpapers3348, Guardian Of Time1198, giovanni.668, haohmaru2046491, lordriu403, MAL1K324, ftbllfrenzy31 ... And 151 more
kalansay212, theparchman99
Report a bug Open chat