DJ Snake ft. Bipolar Sunshine - Middle 1080p [P-DawG] [CPUL].mp4

seeders: 44
leechers: 5
updated:
Added by P-DawG9802 in Movies > Music videos
Torrent verified. Downloaded 7,793 times.

DownloadFast Safe Anonymous
movies, software, shows...
DJ Snake ft. Bipolar Sunshine - Middle 1080p [P-DawG] [CPUL].mp4 (Size: 68.58 MB)
  DJ Snake ft. Bipolar Sunshine - Middle [P-DawG].mp4 68.58 MB

Description

[P-DawG]





image




Cover:-


image




Screens:-


image




General Info:-


General


Complete name : DJ Snake ft. Bipolar Sunshine - Middle [P-DawG].mp4
Format : MPEG-4
Format profile : Base Media
Codec ID : isom
File size : 68.6 MiB
Duration : 5mn 0s
Overall bit rate : 1 916 Kbps
Movie name : Middle
Performer : DJ Snake ft. Bipolar Sunshine
Genre : Dance


Video

ID : 1
Format : AVC
Format/Info : Advanced Video Codec
Format profile : [email protected]
Format settings, CABAC : Yes
Format settings, ReFrames : 3 frames
Codec ID : avc1
Codec ID/Info : Advanced Video Coding
Duration : 5mn 0s
Bit rate mode : Variable
Bit rate : 1 782 Kbps
Width : 1 920 pixels
Height : 1 080 pixels
Display aspect ratio : 16:9
Frame rate mode : Constant
Frame rate : 23.976 fps
Stream size : 63.8 MiB (93%)


Audio

ID : 2
Format : AAC
Format/Info : Advanced Audio Codec
Format profile : LC
Codec ID : 40
Duration : 5mn 0s
Bit rate mode : Constant
Bit rate : 126 Kbps
Channel(s) : 2 channels
Channel positions : Front: L R
Sampling rate : 44.1 KHz
Compression mode : Lossy
Stream size : 4.50 MiB (7%)



image

Sharing Widget


Download torrent
68.58 MB
seeders:35
leechers:4
DJ Snake ft. Bipolar Sunshine - Middle 1080p [P-DawG] [CPUL].mp4



To share this torrent use the code below and insert it into comments, status messages, forum posts or your signature.

Torrent: DJ Snake ft. Bipolar Sunshin...le 1080p [P-DawG] [CPUL].mp4

Trackers

tracker name
udp://tracker.openbittorrent.com:80/announce
udp://tracker.publicbt.com:80/announce
udp://9.rarbg.com:2710/announce
udp://tracker.coppersurfer.tk:6969/announce
http://torrent.gresille.org/announce
udp://glotorrents.pw:6969/announce
µTorrent compatible trackers list

Locations

name
KickassTorrents
Torrent hash: 3376D17FBB28CAC6075AE137C92E7E50AB294A9A

All Comments

audio
9/10
video
10/10
please, leave only comments related to that torrent
Sign In

Love this song and the Video is so nicee
audio: 9video: 10
Sweet Video,Great Tune

Good Audio And Video
Quality Torrent

User Opinions

Stuffytick9182.13K, Hawkster1019815, jaka1829716, deedeeshorr5947, symean3643, Charleneways2446, gamefear1800, combat_pearl1309, Shrey.m949, daisukexdark578 ... And 20 more
Report a bug Open chat