Braindead S01E04 720p HDTV X264-DIMENSION[rartv]

seeders: 251
leechers: 25
updated:
Added by z0n3212.56M in TV
Torrent verified. Downloaded 5,949 times.

DownloadFast Safe Anonymous
movies, software, shows...
  • View all BrainDead episodes
  • Episode title: Wake Up Grassroots: The Nine Virtues of Participatory Democracy, and How We Can Keep America Great by Encouraging an Informed Electorate
  • Episode: S01E04
  • Air date: 11 July 2016
  • IMDb link: 4877736
  • TVmaze link: BrainDead
  • Summary:

    A government employee discovers that the cause of the tensions between the two political parties is a race of extraterrestrial insects eating the brains of the politicians.

    Written by MissFitPirate2955 Last edited by TheCheetah, 3 weeks ago
Available in versions: 1080p720pHDTVWEBRipx265
Braindead S01E04 720p HDTV X264-DIMENSION[rartv] (Size: 732.7 MB)
  Braindead.S01E04.720p.HDTV.X264-DIMENSION.mkv 732.7 MB
  rarbg.com.txt 34 bytes
  braindead.104.720p-dimension.nfo 491 bytes

Description


https://rarbg.to
Braindead.S01E04.720p.HDTV.X264-DIMENSION[rartv]

image
Screens :

image
Mediainfo :

Video
ID : 1
Format : AVC
Format/Info : Advanced Video Codec
Format profile : [email protected]
Format settings, CABAC : Yes
Format settings, ReFrames : 9 frames
Codec ID : V_MPEG4/ISO/AVC
Duration : 43mn 40s
Bit rate : 1 960 Kbps
Width : 1 280 pixels
Height : 720 pixels
Display aspect ratio : 16:9
Frame rate mode : Constant
Frame rate : 23.976 (24000/1001) fps
Color space : YUV
Chroma subsampling : 4:2:0
Bit depth : 8 bits
Scan type : Progressive
Bits/(Pixel*Frame) : 0.089
Stream size : 612 MiB (84%)
Writing library : x264 core 148 r2705 3f5ed56
Encoding settings : cabac=1 / ref=9 / deblock=1:-2:-2 / analyse=0x3:0x133 / me=umh / subme=10 / psy=1 / psy_rd=1.00:0.00 / mixed_ref=1 / me_range=32 / chroma_me=1 / trellis=2 / 8x8dct=1 / cqm=0 / deadzone=21,11 / fast_pskip=0 / chroma_qp_offset=-2 / threads=16 / lookahead_threads=1 / sliced_threads=0 / nr=0 / decimate=1 / interlaced=0 / bluray_compat=0 / constrained_intra=0 / bframes=5 / b_pyramid=2 / b_adapt=2 / b_bias=0 / direct=3 / weightb=1 / open_gop=0 / weightp=2 / keyint=250 / keyint_min=23 / scenecut=40 / intra_refresh=0 / rc_lookahead=60 / rc=crf / mbtree=1 / crf=18.0 / qcomp=0.60 / qpmin=0 / qpmax=69 / qpstep=4 / ip_ratio=1.40 / aq=1:1.00
Language : English
Default : Yes
Forced : No
Color range : Limited
Matrix coefficients : BT.709

Audio
ID : 2
Format : AC-3
Format/Info : Audio Coding 3
Mode extension : CM (complete main)
Format settings, Endianness : Big
Codec ID : A_AC3
Duration : 43mn 40s
Bit rate mode : Constant
Bit rate : 384 Kbps
Channel(s) : 6 channels
Channel positions : Front: L C R, Side: L R, LFE
Sampling rate : 48.0 KHz
Frame rate : 31.250 fps (1536 spf)
Compression mode : Lossy
Stream size : 120 MiB (16%)
Default : Yes
Forced : No

Related Torrents

torrent name size files age seed leech

Sharing Widget


Download torrent
732.7 MB
seeders:242
leechers:29
Braindead S01E04 720p HDTV X264-DIMENSION[rartv]



To share this torrent use the code below and insert it into comments, status messages, forum posts or your signature.

Torrent: Braindead S01E04 720p HDTV X264-DIMENSION[rartv]

Trackers

tracker name
udp://tracker.openbittorrent.com:80/announce
udp://tracker.publicbt.com:80/announce
udp://tracker.coppersurfer.tk:6969/announce
udp://9.rarbg.me:2710/announce
udp://p4p.arenabg.com:1337/announce
http://tracker.trackerfix.com/announce
udp://9.rarbg.to:2710/announce
udp://tracker.opentrackr.org:1337/announce
µTorrent compatible trackers list

Locations

name
KickassTorrents
Torrent hash: EAA69888BC0945E3F4A24ADD4B22262063F80D18

All Comments

audio
9/10
video
10/10
please, leave only comments related to that torrent
Sign In

audio: 9video: 10
Thanks! God I love the episode names.
Thank you, Gracias, Merci, Grazie, Arigato, do jeh, Danke sehr, Khop Khun Mak Kha. ;)

User Opinions

jpentz8914, hm1bryan.seth4558, jltoga4248, thon672393, PEERBLOCK2127, Chanandler2084, doctorzaius2045, Deathship1227, Felluz893, HiddenHeathen417 ... And 18 more
Report a bug Open chat