Ariana Grande - Into You 1080p [P-DawG] [CPUL].mp4

seeders: 45
leechers: 17
updated:
Added by P-DawG9811 in Movies > Music videos
Torrent verified. Downloaded 1,732 times.

DownloadFast Safe Anonymous
movies, software, shows...
Ariana Grande - Into You 1080p [P-DawG] [CPUL].mp4 (Size: 70.91 MB)
  Ariana Grande - Into You [P-DawG].mp4 70.91 MB

Description

[P-DawG]





image




Cover:-


image




Screens:-



image



General Info:-


General

Complete name : Ariana Grande - Into You [P-DawG].mp4
Format : MPEG-4
Format profile : Base Media
Codec ID : isom
File size : 70.9 MiB
Duration : 4mn 14s
Overall bit rate : 2 334 Kbps
Movie name : Into You [P-DawG]
Album : Dangerous Woman
Track name/Position : 4
Performer : Ariana Grande
Genre : Dance\Pop
Cover : Yes


Video

ID : 1
Format : AVC
Format/Info : Advanced Video Codec
Format profile : [email protected]
Format settings, CABAC : Yes
Format settings, ReFrames : 3 frames
Format settings, GOP : M=2, N=54
Codec ID : avc1
Codec ID/Info : Advanced Video Coding
Duration : 4mn 14s
Bit rate mode : Variable
Bit rate : 2 201 Kbps
Width : 1 920 pixels
Height : 1 080 pixels
Display aspect ratio : 16:9
Frame rate mode : Constant
Frame rate : 23.976 fps
Stream size : 66.9 MiB (94%)


Audio

ID : 2
Format : AAC
Format/Info : Advanced Audio Codec
Format profile : LC
Codec ID : 40
Duration : 4mn 14s
Bit rate mode : Constant
Bit rate : 126 Kbps
Channel(s) : 2 channels
Channel positions : Front: L R
Sampling rate : 44.1 KHz
Compression mode : Lossy
Stream size : 3.82 MiB (5%)


image

Related Torrents

torrent name size files age seed leech

Sharing Widget


Download torrent
70.91 MB
seeders:51
leechers:19
Ariana Grande - Into You 1080p [P-DawG] [CPUL].mp4



To share this torrent use the code below and insert it into comments, status messages, forum posts or your signature.

Torrent: Ariana Grande - Into You 1080p [P-DawG] [CPUL].mp4

Trackers

tracker name
udp://tracker.openbittorrent.com:80/announce
udp://tracker.coppersurfer.tk:6969/announce
udp://glotorrents.pw:6969/announce
udp://tracker.opentrackr.org:1337/announce
ĀµTorrent compatible trackers list

Locations

name
KickassTorrents
Torrent hash: D16838E1360CBE2432A052D191581C6EDF48D37C

All Comments

audio
0/10
video
0/10
please, leave only comments related to that torrent
Sign In

Nice upload - but not faster download via some converter on YT witch selecting 1080p and format mp4 - then serch that stuff on torrent mp3 ,movie ,game but that what u can get normal fast why search and download that stuff

User Opinions

Stuffytick9182.33K, gr8webmaster4130, symean3643, Lilalves1881, supriodazz1287, iambroph522, FozziO464, chatha.sherry205, kayamarket135, ripblade69 ... And 8 more
Report a bug Open chat